Reply
 
Thread Tools
  #11  
Old 23-03-2019, 10:42
20404667's Avatar
20404667 20404667 is offline
Senior Member
Join Date: 05-2008
Location: Vũng sình
Posts: 3,941
Re: [Review] Tivi Xiaomi 4s 65 inch sau 2 tuần sử dụng

Quote:
Originally Posted by HuyRongDen View Post
Làm con Router xịn luôn đi, con này dùng nhiều nhu cầu vậy không đủ đâu, R7800 đang Hot trong Box Reviews luôn.
Wifi thì chắc chắn là 5Ghz rồi, 2.4Ghz rất cùi.
Nhu cầu gì mà cần Router xịn hơn bác, mình cũng có nhu cầu y thớt và cũng mới đặt con 3G
__________________
Cái gì mua được bằng tiền thì sẽ đi kèm với hạn sử dụng
Reply With Quote
  #12  
Old 23-03-2019, 10:47
quangkienxd quangkienxd is offline
Senior Member
Join Date: 02-2012
Posts: 186
Re: [Review] Tivi Xiaomi 4s 65 inch sau 2 tuần sử dụng

Quote:
Originally Posted by 20404667 View Post
4K bitrate tầm bao nhiêu mà giật bác, bác truyền qua LAN 1000Mbps, Wifi 2.4 hay 5Ghz nhỉ, thấy ngoài kia review con 3G NAS cũng ok lắm mà nhỉ
Cứ phim tầm hơn 10Gb là giật loạn lên bác ạ, băng tần 5G, và mình thử cắm dây lan trực tiếp từ tivi đến gen 3G cũng giật luôn, thử nhiều cách rồi vẫn bị, đành phải làm cách khá thủ công là, cắm box vào gen 3G download phim, rồi rút ra đút vô tivi để coi!
Ví dụ như phim này
General
Unique ID : 3219757467463071071335240307390454711 (0x26C1A4CA56049C79C56B64B5E829BB7)
Complete name : F:\2019-GIAI TRI\PHIM\PHIM BO\Spartacus.Blood.And.Sand.S01E01.The.Red.Serpent.1080p.BluRay.REMUX.AVC.TrueHD .5.1-EPSiLON.mkv
Format : Matroska
Format version : Version 4 / Version 2
File size : 9.82 GiB
Duration : 54 min 56 s
Overall bit rate mode : Variable
Overall bit rate : 25.6 Mb/s
Encoded date : UTC 2016-11-06 02:33:25
Writing application : mkvmerge v9.4.2 ('So High') 64bit
Writing library : libebml v1.3.4 + libmatroska v1.4.5

Video
ID : 1
Format : AVC
Format/Info : Advanced Video Codec
Format profile : High@L4.1
Format settings, CABAC : Yes
Format settings, RefFrames : 2 frames
Codec ID : V_MPEG4/ISO/AVC
Duration : 54 min 56 s
Bit rate mode : Variable
Bit rate : 22.9 Mb/s
Width : 1 920 pixels
Height : 1 080 pixels
Display aspect ratio : 16:9
Frame rate mode : Constant
Frame rate : 23.976 (24000/1001) FPS
Color space : YUV
Chroma subsampling : 4:2:0
Bit depth : 8 bits
Scan type : Progressive
Bits/(Pixel*Frame) : 0.461
Stream size : 8.79 GiB (89%)
Title : MPEG-4 AVC Video / 22902 kbps / 1080p / 23.976 fps / 16:9 / High Profile 4.1
Language : English
Default : Yes
Forced : No

Audio #1
ID : 2
Format : TrueHD
Codec ID : A_TRUEHD
Duration : 54 min 56 s
Bit rate mode : Variable
Bit rate : 1 652 kb/s
Maximum bit rate : 3 069 kb/s
Channel(s) : 6 channels
Channel positions : Front: L C R, Side: L R, LFE
Sampling rate : 48.0 kHz
Frame rate : 1 200.000 FPS (40 SPF)
Compression mode : Lossless
Stream size : 649 MiB (6%)
Title : Dolby TrueHD Audio / 5.1 / 48 kHz / 1652 kbps / 16-bit
Language : English
Default : Yes
Forced : No

Audio #2
ID : 3
Format : AC-3
Format/Info : Audio Coding 3
Format settings, Endianness : Big
Codec ID : A_AC3
Duration : 54 min 56 s
Bit rate mode : Constant
Bit rate : 640 kb/s
Channel(s) : 6 channels
Channel positions : Front: L C R, Side: L R, LFE
Sampling rate : 48.0 kHz
Frame rate : 31.250 FPS (1536 SPF)
Bit depth : 16 bits
Compression mode : Lossy
Stream size : 251 MiB (3%)
Title : Dolby Digital 5.1 / 48 kHz / 640 kbps
Language : English
Service kind : Complete Main
Default : No
Forced : No

Audio #3
ID : 4
Format : AC-3
Format/Info : Audio Coding 3
Mode : Dolby Digital
Format settings, Endianness : Big
Codec ID : A_AC3
Duration : 54 min 56 s
Bit rate mode : Constant
Bit rate : 192 kb/s
Channel(s) : 2 channels
Channel positions : Front: L R
Sampling rate : 48.0 kHz
Frame rate : 31.250 FPS (1536 SPF)
Bit depth : 16 bits
Compression mode : Lossy
Stream size : 75.4 MiB (1%)
Title : Commentary with Cast & Crew (Dolby Digital 2.0 @ 192 kbps)
Language : English
Service kind : Complete Main
Default : No
Forced : No

Text #1
ID : 5
Format : PGS
Codec ID : S_HDMV/PGS
Codec ID/Info : Picture based subtitle format used on BDs/HD-DVDs
Duration : 53 min 1 s
Bit rate : 34.4 kb/s
Count of elements : 1142
Stream size : 13.0 MiB (0%)
Title : SDH
Language : English
Default : No
Forced : No

Text #2
ID : 6
Format : PGS
Codec ID : S_HDMV/PGS
Codec ID/Info : Picture based subtitle format used on BDs/HD-DVDs
Duration : 52 min 34 s
Bit rate : 32.6 kb/s
Count of elements : 954
Stream size : 12.3 MiB (0%)
Language : Spanish
Default : No
Forced : No

Text #3
ID : 7
Format : PGS
Codec ID : S_HDMV/PGS
Codec ID/Info : Picture based subtitle format used on BDs/HD-DVDs
Duration : 52 min 43 s
Bit rate : 36.6 kb/s
Count of elements : 778
Stream size : 13.8 MiB (0%)
Language : Chinese
Default : No
Forced : No

Text #4
ID : 8
Format : PGS
Codec ID : S_HDMV/PGS
Codec ID/Info : Picture based subtitle format used on BDs/HD-DVDs
Duration : 52 min 43 s
Bit rate : 37.6 kb/s
Count of elements : 780
Stream size : 14.2 MiB (0%)
Language : Chinese
Default : No
Forced : No

Menu
00:00:00.000 : en: Chapter 1
00:09:13.970 : en: Chapter 2
00:18:18.514 : en: Chapter 3
00:27:36.738 : en: Chapter 4
00:33:24.336 : en: Chapter 5
00:44:03.307 : en: Chapter 6
00:53:04.640 : en: Chapter 7

__________________
HAY LÀ CS
https://www.fshare.vn/folder/5Q41JCRLG69H

Last edited by quangkienxd; 23-03-2019 at 10:53.
Reply With Quote
  #13  
Old 23-03-2019, 10:49
quangkienxd quangkienxd is offline
Senior Member
Join Date: 02-2012
Posts: 186
Re: [Review] Tivi Xiaomi 4s 65 inch sau 2 tuần sử dụng

Quote:
Originally Posted by 20404667 View Post
Nhu cầu gì mà cần Router xịn hơn bác, mình cũng có nhu cầu y thớt và cũng mới đặt con 3G
Nhu cầu của mình giờ là làm sao tải phim vào ổ cứng rồi mở tivi xem qua ổ NAS đó, đỡ tháo rút phiền phức ghê!
__________________
HAY LÀ CS
https://www.fshare.vn/folder/5Q41JCRLG69H
Reply With Quote
  #14  
Old 23-03-2019, 10:55
HuyRongDen's Avatar
HuyRongDen HuyRongDen is offline
Senior Member
Join Date: 07-2014
Location: Sài Gòn
Posts: 7,631
Re: [Review] Tivi Xiaomi 4s 65 inch sau 2 tuần sử dụng

Quote:
Originally Posted by quangkienxd View Post
Nhu cầu của mình giờ là làm sao tải phim vào ổ cứng rồi mở tivi xem qua ổ NAS đó, đỡ tháo rút phiền phức ghê!
Nếu đã là Fan Xiaomi thì mua luôn con Mi Router HD đi, tích hợp 1TB luôn, Chip Qualcomm.
__________________
Asus B450-F Gaming, Ryzen 5 2600X OC
Dominator 8Gbx2 3200, RX 580 8GB Nitro+
SSD 970 EVO 512GB, HDD Seagate 2TB
Draytek 2925Fv, Netgear X4S, Intel 9260ac
Logitech G Pro Combo, Philips SHP9500S, SB-Z
Reply With Quote
  #15  
Old 23-03-2019, 11:02
hntek123's Avatar
hntek123 hntek123 is offline
Senior Member
Join Date: 09-2016
Location: HÀ LỘI PHỐ
Posts: 4,050
Re: [Review] Tivi Xiaomi 4s 65 inch sau 2 tuần sử dụng

Cho hỏi cái, cái đèn bàn tiểu mễ của thím thớt dùng ok ko ? Con đèn bàn ở nhà hỏng cmnr, tính mua con mì xào về làm màu cái mà ko biết đèn tụi nó bền không ?

Gửi từ Thiên Hà Prime bằng vozFApp
__________________
Clone của mình: hntek123, hntek234, hntek456
Chỉ có 3 acc thôi nha...!

Quote:
Avatar: Taissa Farmiga
Reply With Quote
  #16  
Old 23-03-2019, 11:03
Tuan565 Tuan565 is offline
Senior Member
Join Date: 06-2012
Posts: 1,291
Re: [Review] Tivi Xiaomi 4s 65 inch sau 2 tuần sử dụng

Quote:
Originally Posted by quangkienxd View Post
Nhu cầu của mình giờ là làm sao tải phim vào ổ cứng rồi mở tivi xem qua ổ NAS đó, đỡ tháo rút phiền phức ghê!
Confirm là mấy router xiaomi bị hết
Đã qua con Gen 3 + Gen 3G đều bị tình trạng như vậy, ko biết có vấn đề gì về cổng USB nữa. Nhiều lúc xem film full HD còn giật (xem trên Mi TV4A 55 inch)
Cách mình khắc phục là xem qua giao thức FTP hoặc DLNA chứ ko xem qua Samba Share nữa, cái giao thức đó ở router có vấn đề, copy trồi sụt cực nhiều
__________________
--------Nick nhiều người dùng--------
Reply With Quote
  #17  
Old 23-03-2019, 11:07
quangkienxd quangkienxd is offline
Senior Member
Join Date: 02-2012
Posts: 186
Re: [Review] Tivi Xiaomi 4s 65 inch sau 2 tuần sử dụng

Quote:
Originally Posted by HuyRongDen View Post
Nếu đã là Fan Xiaomi thì mua luôn con Mi Router HD đi, tích hợp 1TB luôn, Chip Qualcomm.
Hè, fan xiaomi nhưng mình sợ đầu tư về, rồi vẫn phải cắm thủ công ổ cứng vào tivi xem 4K thì nhọ.
Bên box review gen 3G thấy bác gì bảo tốc độ sao chép của con gen 3G toàn hơn 20Mb, mà của mình tối đa được có 7mb (cop từ gen 3 vào lap)
__________________
HAY LÀ CS
https://www.fshare.vn/folder/5Q41JCRLG69H
Reply With Quote
  #18  
Old 23-03-2019, 11:08
quangkienxd quangkienxd is offline
Senior Member
Join Date: 02-2012
Posts: 186
Re: [Review] Tivi Xiaomi 4s 65 inch sau 2 tuần sử dụng

Quote:
Originally Posted by Tuan565 View Post
Confirm là mấy router xiaomi bị hết
Đã qua con Gen 3 + Gen 3G đều bị tình trạng như vậy, ko biết có vấn đề gì về cổng USB nữa. Nhiều lúc xem film full HD còn giật (xem trên Mi TV4A 55 inch)
Cách mình khắc phục là xem qua giao thức FTP hoặc DLNA chứ ko xem qua Samba Share nữa, cái giao thức đó ở router có vấn đề, copy trồi sụt cực nhiều
Trời b nói chuẩn rồi đó, y chang bệnh mình đang gặp đây, bác xem qua giao thức FTP hoặc DLNA, xem 4K có giật không a? Để mình thử!
__________________
HAY LÀ CS
https://www.fshare.vn/folder/5Q41JCRLG69H
Reply With Quote
  #19  
Old 23-03-2019, 11:16
quangkienxd quangkienxd is offline
Senior Member
Join Date: 02-2012
Posts: 186
Re: [Review] Tivi Xiaomi 4s 65 inch sau 2 tuần sử dụng

Quote:
Originally Posted by hntek123 View Post
Cho hỏi cái, cái đèn bàn tiểu mễ của thím thớt dùng ok ko ? Con đèn bàn ở nhà hỏng cmnr, tính mua con mì xào về làm màu cái mà ko biết đèn tụi nó bền không ?
Đèn mình mua từ 2016, 650k rất ổn! Tuy nhiên bực cái là, thi thoảng bật tắt bằng ứng dụng mihome lởm khởm, mở ứng dụng lên phải chờ 1 lúc nó mới nhận, không nhạy như những thiết bị khác như bóng đèn philip hay ổ cắm!
__________________
HAY LÀ CS
https://www.fshare.vn/folder/5Q41JCRLG69H
Reply With Quote
  #20  
Old 23-03-2019, 11:54
HuyRongDen's Avatar
HuyRongDen HuyRongDen is offline
Senior Member
Join Date: 07-2014
Location: Sài Gòn
Posts: 7,631
Re: [Review] Tivi Xiaomi 4s 65 inch sau 2 tuần sử dụng

Quote:
Originally Posted by quangkienxd View Post
Hè, fan xiaomi nhưng mình sợ đầu tư về, rồi vẫn phải cắm thủ công ổ cứng vào tivi xem 4K thì nhọ.
Bên box review gen 3G thấy bác gì bảo tốc độ sao chép của con gen 3G toàn hơn 20Mb, mà của mình tối đa được có 7mb (cop từ gen 3 vào lap)
Bác qua Thread Nighthawk X4S xem, 1tr7 thôi kìa.
__________________
Asus B450-F Gaming, Ryzen 5 2600X OC
Dominator 8Gbx2 3200, RX 580 8GB Nitro+
SSD 970 EVO 512GB, HDD Seagate 2TB
Draytek 2925Fv, Netgear X4S, Intel 9260ac
Logitech G Pro Combo, Philips SHP9500S, SB-Z
Reply With Quote
Reply

« Previous Thread | Next Thread »
Thread Tools

Posting Rules
You may not post new threads
You may not post replies
You may not post attachments
You may not edit your posts

BB code is On
Smilies are On
[IMG] code is On
HTML code is Off


All times are GMT +7. The time now is 09:45.